Ffmpeg Audio Pts

Speed up or Slow down the audio. mp4 container, a very common and highly-portable combination of codecs and container that is practically identical to the. I would like to create a single 10 minute video clip measuring 1280x480 (in other words, I want to place the videos next to each other and play them simultaneously, mixing audio from both clips). c (which is now transcoding. Re: Fixing bad DTS/PTS without reencode Post by rogerdpack » Mon Jan 21, 2013 3:57 pm too bad there was no resolution to this, I know with DVD rips, ffmpeg reports the wrong durationbut with mencoder -forceidx it "fixes it right up" I wish there were an ffmpeg equivlaent. Goal: I have a video w/ audio, and want to replace just the audio in a middle segment of the video without affecting the rest of the video and audio. [[email protected]: ~]$ ffprobe -hide_banner 1. mp4 -map 0:v -vcodec copy output. 阅读 8K+ 收藏 0. La ligne de commande est simple :. mp3" -filter_complex "[0:a]atrim=0:316,asetpts=PTS-STARTPTS[aud1];[1:a]atrim=0:172,asetpts=PTS-ST ARTPTS[aud2]" -map 0:v -map "[aout]" -c:v copy -c:a libmp3lame New. -r is used to specify the output frame rate. The filter for video is setpts (PTS = presentation time stamp). What I get is a video where the mic audio stays in sync, but the desktop audio goes back to being too. Unix & Linux Stack Exchange is a question and answer site for users of Linux, FreeBSD and other Un*x-like operating systems. FFmpeg is a free, open-source software and it's the Swiss Army knife of video- and audio-related processing. mp4': Metadata: major_brand : isom minor_version : 512 compatible_brands. 04, start: 2. Fluent ffmpeg-API for node. The detected dimensions correspond to the non-black area of the input video. I am attempting to seek both audio and video streams for an mp4 using the ffmpeg av_seek_frame method. I noticed that audio pts was very large than video pts. c in FFmpeg before 4. avi has the number 1. Replace the names and formats accordingly. yuv out%03d. video didn't work for me, but the following. flac -filter_complex "[1:a]asplit=2[sc][mix];[0:a][sc]sidechaincompress[compr];[compr][mix]amerge" silencedetect Detect silence in an. However, ffmpeg reorders the packets so that the DTS of the packet being processed by avcodec_decode_video() will always be the same as the PTS of the frame it returns. Now we're going to do the same sort of thing with the video display. mp4 -vn -ar 44100 -ac 2 -ab 320 -f mp3 output. mp4 Slower Video Speed ffmpeg -i input. avi has the number 0,; v2. I dont know how to convert that to real time. Converting video and audio has never been so easy. mp4 -vf setpts=PTS*1. FFmpeg is a comprehensive multimedia encoding and decoding library that consists of nu-merous audio, video, and container formats. I will use this to capture the desktop with x11grab, audio from pulse and webcam from video4linux2. 1: Audio: libmp3lame, 48000 Hz, stereo, 192 kb/s Stream mapping: Stream #0:0 -> #0:0 (copy) Stream #1:0 -> #0:1 (copy) Press ctrl-c to stop encoding frame= 144 fps= 0 q=-1. mkv -codec:video libx264 -codec:audio copy /volume1/video/test. latm Then, looking at the created LATM file in a hex editor, and comparing the bytes with the AAC LATM/LOAS spec in the ISO standard (ISO14496-3-2009 - can be found on Google), after a bit of figuring out I worked out the problem. October 5th, 2019, Bright Lights. blob: 55b5f865c79114917d1a62de16a5d7820bb269cd [] [] []. wav -c:a libfdk_aac -profile:a aac_he -b:a 64k output. 00017 * 00018 * You should have received a copy of the GNU Lesser General Public 00019 * License along with FFmpeg; if not, write to the Free Software { 00115 // rewrite pts and dts to be decoded time line position 00116 pkt->pts = pkt->dts = aic->dts ; 00117. It cuts out audio and video of two segments, resets PTS for continuity, concatenates and crops them. a frame's position in a stream. $ ffmpeg -i input. MPEG audio), then it contains one frame. 092880 pts_time=0. PA is configured (via null sinks) to take audio from output capture and the USB mic, and that bit works, but the recorded result is full of audible glitches, slowing down (speed and pitch) and crackles. You can change the speed of your video using the setpts (set presentation time stamp) filter of FFmpeg. pts with ffmpeg::av_rescale_q() but this is only called after you have encoded the frame ! When used with the MP4V codec the avcodec_encode_video() sets the pts value correctly itself. The parameters which define two inputs where the second input will be delayed for N seconds, goes like this:. FFmpeg is a command-line tool that uses commands to convert audio or video formats. Re: Fixing bad DTS/PTS without reencode Post by rogerdpack » Mon Jan 21, 2013 3:57 pm too bad there was no resolution to this, I know with DVD rips, ffmpeg reports the wrong durationbut with mencoder -forceidx it "fixes it right up" I wish there were an ffmpeg equivlaent. 2) Seek does not work after 12 sec. ffmpeg と PTS のはなし: setpts とか. ffmpeg实现音频resample(重采样)(二) 时间 2015-08-06 本篇文章将增加AVFifoBuffer和音频样本是av_sample_fmt_is_planar的样式采样率讲解,下面上代码. At its core is the FFmpeg program itself, designed for command-line-based processing of video and audio files, and widely used for format transcoding, basic editing (trimming and concatenation), video scaling, video post. mp4 -filter:v "setpts=0. - Update ffmpeg test profile against upstream FFmpeg 1. I am attempting to seek both audio and video streams for an mp4 using the ffmpeg av_seek_frame method. This device allows playing and grabbing from an Audio-CD. 5 min (of the sped up video). mp4 Format : MPEG-4 Format profile : Base Media / Version 2 Codec ID : mp42 File size : 61. In addition, most audio can have more than one channel for stereo or surround, so for example, if the sample is in stereo, the samples will come 2 at a time. The first 33 bits are based on a 90 kHz clock. mov container when the audio and video start at different timecodes. Stack Exchange network consists of 176 Q&A communities including Stack Overflow, the largest, most trusted online community for developers to learn, share their knowledge, and build their careers. mp4 -filter:v "setpts=0. Hole stream duration is ~5s, but audio PTS goes to ~334s. latm Then, looking at the created LATM file in a hex editor, and comparing the bytes with the AAC LATM/LOAS spec in the ISO standard (ISO14496-3-2009 - can be found on Google), after a bit of figuring out I worked out the problem. 00001 /* 00002 * Audio Interleaving { 00115 // rewrite pts and dts to be decoded time line Generated on Fri Oct 26 02:39:39 2012 for FFmpeg by. AVPacket is one of the few structs in FFmpeg, whose size is a part of public ABI. I have two video clips. 976 -vcodec libx264 -vf "scale=1920:1080" -b:v 3400k -preset veryfast -profile:v baseline -keyint_min 24 -g 48 -x264opts no-scenecut -strict experimental -acodec aac -b:a 96k -af "aresample=async=1:min_hard_comp=0. Summary of the bug: When copying the streams of a mpeg-ts containing h. Viewed 6k times 4. A pure ffmpeg solution would be perfect, but perhaps another tool is able to handle the subtitles better. Change FFmpeg waveform colour overlaid over image. - change deprecated av_free_packet to unrefs. 224:21414/live. mkv But on Ubuntu, ffmpeg is replaced by avconv, and the atempo filter is not available in avconv. Sample below shows basic conversion video file from mkv to mp4 format:. FFmpeg has added a realtime bright flash removal filter to libavfilter. For video, it will select stream 0 from B. FFmpeg is a complete solution to record, convert, edit and stream audio and video. ffmpeg problem: DTS/PTS invalid, clipping Post by WillJ » Sat Mar 16, 2013 10:42 am (I thought I'd move this topic here as it was in the rtmpdump section, inappropriately as its about ffmpeg). 1 of the License, or (at your option) any later version. Examples · Full ffmpeg example taking 2 audio inputs, 1st input to be compressed depending on the signal of 2nd input and later compressed signal to be merged with 2nd input: ffmpeg -i main. This fixes the first issue I raised. -b:a 128k - Specifies the bitrate of the audio as 128k. mp3 -i cover. 264, audio to AAC, and wrapped in an. So, Max value for PCR is 2^42 = 4398046511104 Max value for PTS is 2^33 = 8589934592 PCR (sec) = 4398046511104 / 27 000 000 Hz = 162890,6 seconds (45 hours) PTS (sec) = 8589934592 / 90 000 Hz = 95443,7 seconds (26,5 hours). The parameters which define two inputs where the second input will be delayed for N seconds, goes like this:. For audio it may contain several compressed frames. If you want to change the pitch, and you don't have the latest ffmpeg with --enable-librubberband, you need to rely on a low-level filter. The parameters which define two inputs where the second input will be delayed for N seconds, goes like this:. The new name better expresses what the variable is. I think that this I is bug inside ffmpeg library. -r is used to specify the output frame rate. mp3 audio file. All that remains is to merge the two audio streams so both can be heard at the same time: ffmpeg -i synced_video. mp3 Convert Audio for FreeSWITCH (or Asterisk) Converts WAV to various MP3 formats. Hls Fragment Hls Fragment. mp4 The audio is synchronised all right, but the video length is displayed incorrectly in players: they show 30 min (of the original video) instead of 1. Any seek used after a vframes moves one frame at a time unti the timestamp is reached, while any seek time before jumps "close to" the timestamp. 436 // input pipe may have been closed by the program that ran ffmpeg. Ask Question Asked 3 years ago. It includes libavcodec, the leading audio/video codec library used by several other projects. It cuts out audio and video of two segments, resets PTS for continuity, concatenates and crops them. The name of the command is the name of the option and the argument is. 1", is the audio track. This article shows how easy it is to read or write video frames with a few lines of Python, by calling the external software FFMPEG through pipes. pts != frame->pkt_pts in AVFrame? ffmpeg. Extract individual frames from a video using ffmpeg ffmpeg -f rawvideo -framerate 25 -s 352x288 -pixel_format yuv420p -i akiyo_cif. c example sets the packet. To double the speed of the video, you can use: ffmpeg -i input. To increase video play back speed command line is: $ ffmpeg -i video. both pts starts from 0 with sync. 264 & VP8? I need to convert videos, usually mp4 files to smaller sized mp4s and webms. 參考了 http://albert-oma. mp4 -vn output. 125*PTS" output. mp4 -filter:v "setpts=0. 1 of the License, or (at your option) any later version. 139320 pts_time=0. Gottem $260 shipped, Take both for $160! Willing to hear offers but strictly cash only. mp4 This resulted in really bad audio quality. com/2017/07/18/commandline-media-helper/#. mp4 -vf setpts=PTS*1. to update some stream parameters at the end of encoding). For example, the presentation time stamp (PTS) is intended to be relative to the PCR. Hole stream duration is ~5s, but audio PTS goes to ~334s. Hi, i use ffmpeg together with the Unreal Engine 4 (UE4) to record audio/video. To increase video play back speed command line is: $ ffmpeg -i video. mkv is a Matroska container file and accepts video, audio and subtitle streams, so ffmpeg will try to select one of each type. Anyway, I decided to mirror the behaviour of FFmpeg’s output-example. pts=20个刻度 time_base={1,10} 每一个刻度是1/10厘米 所以物体的长度=ptstime_base=201/10 厘米. MPEG-4), you might be using another motion estimation method, and without an explicit motion estimation method specified for the mpeg2video encoder, ffmpeg. If you want a battle-tested and more sophisticated version, check out my module MoviePy. I've tried converting the audio stream to uncompressed 16-bit, 32-bit and 64-bit WAVs, so that if a software like Audacity or Spek uses different FFmpeg or libopus versions the results aren't affected if different codecs are used for the tests. Viewed 6k times 4. For audio it may contain several compressed frames. pkt->pts = stream->read;<-----remove this line. com/2017/07/18/commandline-media-helper/ https://motiondesigntechnology. ffmpeg -f concat -i file-list. FFmpeg FFmpeg for Android. r/ffmpeg: FFmpeg is the leading multimedia framework, able to decode, encode, transcode, mux, demux, stream, filter and play pretty much anything … Press J to jump to the feed. Conversion is the main class to handle FFmpeg conversions. This is due to ffmpeg's behavior, as has been discussed in detail in #26, #208 and shown in this example. yum list ffmpeg ffmpeg-devel mplayer mencoder flvtool2 re2c yasm nasm libvpx libvpx-devel amrnb-devel amrwb-devel libid3tag libvorbis-devel lame libogg libwmf xvidcore xvidcore-devel facc faad2 a52decoder *vorbis* ruby ruby-libs ruby-devel --enablerepo=atrpms -q Installed Packages libvpx. Note that this filter is not FDA approved, nor are we medical. This may result in incorrect timestamps in the output file. Now we can finally implement our get_audio_clock function. PA is configured (via null sinks) to take audio from output capture and the USB mic, and that bit works, but the recorded result is full of audible glitches, slowing down (speed and pitch) and crackles. I have seen 2 meanings in the ffmeg library: - Some codecs seem to assume that the PTS value is actually a 'frame count', i. I don't know why but ffmpeg returns me wrong PTS value for audio. Ask Question Asked 3 years ago. How to record desktop with audio on ffmpeg. WARN: Previous sector: 0. Support and community hang-out spot for Ogre3D While the ffmpeg dependency makes sense, any audio dependency will probably interfere with whatever. el7_0 @base re2c. Set audio device number for devices with the same name (starts at 0, defaults to 0). 5 min (of the sped up video). Now we're going to do the same sort of thing with the video display. if I click to the half of the video, it tries to seek. mp4 This command won't terminate on its own, and the output file will grow infinitely. This must be the same as the input frame rate to eliminate judder. -ac 2 - Specifies the number of audio channels. ffmpeg -ss 00:01:30 -t 30 -acodec copy -i inputfile. In the end, seeking was my biggest headache for my FFmpeg decoding plugin. Page 3-vid2bb. a frame's position in a stream. 0) setpts= set presentation timestamp-r = frame rate Slowing down: Video: ffmpeg -i input. mp4 20 pixels down and 40 pixels over. PTS DTS flags -- Presentation Time Stamp / Decode Time Stamp. cropdetec can auto-detect crop size. Ogre Forums. Progi1984 - Commentaires (0) Logiciel Libre. mp4 This command won't terminate on its own, and the output file will grow infinitely. 0" -vn output. Support and community hang-out spot for Ogre3D While the ffmpeg dependency makes sense, any audio dependency will probably interfere with whatever. General Complete name : E:\audio. mp4 in the middle. Encoders are allowed to output empty packets, with no compressed data, containing only side data (e. mkv is a Matroska container file and accepts video, audio and subtitle streams, so ffmpeg will try to select one of each type. Take a look at this example for some ideas. Generated on Fri Oct 26 02:39:50 2012 for FFmpeg by 1. to the PCR, PTS. – Ability to view all audio tracks with ability to re-sort them in any order how the user would like them to be. 5*PTS" output. I would like to create a single 10 minute video clip measuring 1280x480 (in other words, I want to place the videos next to each other and play them simultaneously, mixing audio from both clips). To get a recent version you can compile ffmpeg or simply download a static build. Combine audio from video1. Probably looking at how guess_correct_pts is called in. The line below can be used as a starting point for FFmpeg. The name of the command is the name of the option and the argument is. r/ffmpeg: FFmpeg is the leading multimedia framework, able to decode, encode, transcode, mux, demux, stream, filter and play pretty much anything … Press J to jump to the feed. Now with the pts_time we can find a way to render this synched with audio pts_time or with a system clock. This merges Libav commit 3e265ca. 000, but I want 48. PTS copied from the AVPacket that was decoded to produce this frame. mp4 The -r option before the input tells FFmpeg to read the specified number of frames in constant mode. The command ffmpeg -codecs will print every codec FFmpeg knows about. In particular it allows one to perform audio resampling, audio channel layout rematrixing, and convert audio format and packing layout. Usual disclaimer: "technical notes" posts are probably of zero interest to the blog followers and are just meant for Google. MPEG-4), you might be using another motion estimation method, and without an explicit motion estimation method specified for the mpeg2video encoder, ffmpeg. The video itself is more or less a slideshow with a high quality video in the beginning. mka -ss 0 -to 341. The parameter for atempo must be between 0. The closest I've come is using this: ----- ffmpeg. Long, detailed tutorial on how to use ffmpeg, a powerful, multi-purpose audio and video processing software, including conversion and transcoding, scaling and quality, image extraction, combination and GIF creation, splitting and joining of videos, timestamps, subtitle extraction and embedding, video speedup and slowdown, smoothing effect and interpolation, and more. 디코딩 된 오디오 패킷 인코딩의 일부로 avcodec_fill_audio_frame()을 사용하고 있습니다. ffmpegの使い方やコマンド一覧をまとめました。動画ファイルの切り取り(カット)や幅や高さの変換(リサイズ)、動画を静止画に切り出す処理、フレーム補間ができます。ffmpegはコマンドラインで使用することができる動画処理関連のフリーのプログラムです。. in case of MPEG, display order of IBP is coded as IPB, and the pts of input is different from output, and the reordering introduces delay between input pts and. Packetized Elementary Stream (PES) is a specification in the MPEG-2 Part 1 (Systems) (ISO/IEC 13818-1) and ITU-T H. That link points to the right and proper way to do speed ups and slow motion with ffmpeg. mov container when the audio and video start at different timecodes. root #emerge --ask media-video/ffmpeg (If somebody successfully uses MPlayer/MPlayer2 to dump PCM specified chapters, feel free to add it to this Wiki page and retitle appropriately. 125*PTS" -an output8x. but by using -codec copy, you are bypassing the decoder. All that remains is to merge the two audio streams so both can be heard at the same time: ffmpeg -i synced_video. If you care to sync the audio speed with the. How I can split audio into complete segments (split by reported PTS)? Code: ffmpeg -i test. This is undocumented, but both LibAV and FFmpeg do so internally. Say for example, to convert mp4 file to avi file, run: $ ffmpeg -i video. When seeking (audio), use the DTS/PTS for the first frame, because that's all you have. DE ac3 raw AC-3 D act ACT Voice file format D adf Artworx Data Format E adts ADTS AAC DE adx CRI ADX D aea MD STUDIO audio DE aiff Audio IFF DE alaw PCM A-law format DE alsa ALSA audio output DE amr 3GPP AMR file format D anm Deluxe. FFmpeg, knihovny svobodný multiplatformní software využívají jej MPlayer, VLC media player, Avidemux, ffdshow knihovny: libavutil (matematické rutiny, pro zjednodušení programování) libavcodec (audio a video kodeky) libavformat (muxery a demuxery/splittery pro kontejnery) libavdevice (grabování a renderování přes V4L(2), VfW. FFmpeg is a great multimedia framework that helps you deal with your audio and video files. I therefore tested speeding up the video 8 times, using this command (the -an flag is used to remove the audio): ffmpeg -i dance. By using two seeks, one to a second before where we really want to be, and then a second. Ffprobe Timeout Ffprobe Timeout. audio or input. mp4 -vn output. av_dict_set (& format_context-> metadata, "skip_id3v1_tags", "", 0); // Ensure ffmpeg doesn't give up too early while looking for stream params; // this does not increase the amount of data downloaded. [input-file] is the video file or the stream URL. MPEG-2 transport stream demuxer. My question is: Are there any alternatives to the atempo filter to use with avconv, or how to speed up audio AND video using avconv?. 93 seconds Transition is 1 second Command line using ffmpeg: ffmpeg -i 1. If you have any questions or suggestions, please leave them in the comments. blob: 55b5f865c79114917d1a62de16a5d7820bb269cd [] [] []. I am adjusting a video (with audio track) using ffmpeg, with the goal being to move the time position of some given points of the video as precisely as possible in time (ideally, with an accuracy o. blob: ff99913d5f8ffb7a2ee0ee0a1b19237c969a8913 [] [] []. pixel_format. Why is packet. mp4 -filter:v "crop=1080:560:0:650" -c:a copy out. Clones first/last or both for freeze frame between segments for adding subtitles for longer reading during last frame. 182000 -acodec copy part1. My question is: Are there any alternatives to the atempo filter to use with avconv, or how to speed up audio AND video using avconv?. Combine audio from video1. 264 video encoding, FFmpeg uses external open source library x264. The same can be done to change the video as well as the audio stream: ffmpeg-i input. If you leave out the -c copy option, ffmpeg will automatically re-encode the output video and audio according to the format you chose. 3GP" on which I have applied my ffmpeg command. The speed is set through the libcdio "cdio_cddap_speed_set. It includes libavcodec - the audio/video codec library. Anyway, I decided to mirror the behaviour of FFmpeg’s output-example. wav 16-bit little-endian at 48 kHz sampling rate. mkv is a Matroska container file and accepts video, audio and subtitle streams, so ffmpeg will try to select one of each type. 125*PTS" -an output8x. FFmpeg checks the input file for a valid format and makes asumptions about the video and audio format for the output, based only on the specified output format (aka "container" or "wrapper"), MP4. Examples · Full ffmpeg example taking 2 audio inputs, 1st input to be compressed depending on the signal of 2nd input and later compressed signal to be merged with 2nd input: ffmpeg -i main. Container: MP4 oder MKV bzw. Also, you can use various audio transcoding options to the output file as shown below. The second stream, called "stream #0. / filters / ffmpeg_audio_decoder. I was able to extract all stream so for, except this one. Using ffmpeg to convert a set of images into a video. So I calculated the DTS using current time information. Take a look at this example for some ideas. mkv The filter works by changing the presentation timestamp (PTS) of each video frame. It supports converting between most video and audio formats. how to drop an input stream. At first, you would think that this would be as simple as updating the timer with the current PTS of the last frame to be shown. ffmpeg+audiounit. On Mon, Dec 3, 2018 at 11:16 AM Gyan Doshi wrote: > On 03-12-2018 09:35 PM, Carl Eugen Hoyos wrote: > > It appears to me that NewTek abused our willingness to add an optional > > external nonfree library, I don't see many better options. If you care to sync the audio speed with the. In the details of #26, it's mentioned that a lot of this is just weird ffmpeg behavior and not directly ffmpeg-python, though some day we might be able to work around ffmpeg's weirdness a bit on the ffmpeg-python side. It can convert to and from any supported video/audio codec, as well as stream from live feeds, which is what our example is going to be in this presentation-f :this option is typically not needed for file conversion. mp4 at High Profile, preserves the colour space of the input file, and uses a default preset. ts': Duration: 00:00:02. sha256: ffmpeg -i INPUT -f framehash out. To increase video play back speed command line is: $ ffmpeg -i video. 0+0,0 -c:v libx264 -pix_fmt yuv420p -qp 0 -preset ultrafast moetoVideo. Wowza Streaming Engine doesn't use the edit lists that some video recorders use to synchronize audio and video in a. mkv -filter_complex "[0:a:0][0:a:1] amerge=inputs=2 [out]" -map "0:v" -c:v copy -map "[out]" -c:a aac -b:a 320k -ac 2 merged. If the output file is smaller you know that the video is written. 4 -af asetrate=48000*1. Stereo audio is recommended for best compatability. mp4 video file to output. x - download from here if you don't have it: or compile the latest version from source: Here's a script I use to resize my GoPro. -> The shape of audio PTS make 2 problem. There are three output files specified, and for the first two, no -map options are set, so ffmpeg will select streams for these two files automatically. 25,atempo=1/1. x player or FFVCL Standard 5. This dilemma is intrinsic to ffmpeg, and ffmpeg-python tries. *http://dranger. For the further development you better study the documentation and example code of ffmpeg. Of course this is set for each audio track individually. The above output, however, does not have any audio attached to the output. 000, but I want />/48. Integrating FFmpeg with MediaCodec solution. c example sets the packet. ffmpeg中时间戳调整参数setpts PTS(Presentation Time Stamp):即显示时间戳,这个时间戳用来告诉播放器该在什么时候显示这一帧的数据。 当视音频音画不同步,播放器进度条拖动异常,总时长显示异常,往往都是由于pts错误导致的。 先说如何查看视音频的pts. $ ffmpeg -i input. I would imagine it having something to do with the time base. 125*PTS" output. The second stream, called "stream #0. To double the speed of the video, you can use: ffmpeg -i input. In the details of #26, it's mentioned that a lot of this is just weird ffmpeg behavior and not directly ffmpeg-python, though some day we might be able to work around ffmpeg's weirdness a bit on the ffmpeg-python side. The reason is maybe, that />/the sampling rate of the output was transformed to 64. 5*PTS" output. To increase video play back speed command line is: $ ffmpeg -i video. FFMPEG component FFVCL Standard 5. Ffmpeg stream to webrtc. 084 INFO: Audio[0] pts = 0. Now with the pts_time we can find a way to render this synched with audio pts_time or with a system clock. 112 STAT: VOBU 8817 at 1358MB, 1 PGCs CHAPTERS: VTS[1/1] 0. mp4 -c copy output. Show off your latest ffmpeg findings or useful commands; solely ffmpeg glitches are encouraged ;3 EXAMPLE: Abuse Scale Filter; Colorspace Glitch ffmpeg -i input. c (which is now transcoding. flac -i sidechain. mkv -vf "setpts=0. Default value is 0. The new name better expresses what the variable is. 4 [1 August 2015] Update ffdlls to 2. x Encoder Reply Posted: Sep 18, 2015 11:32 AM. The above output, however, does not have any audio attached to the output. Now we're going to do the same sort of thing with the video display. Some of them are not explained very well in the documentation, and many websites have confusing postings by well-meaning people trying to make use of the switches. mp4 and video2. /ffprobe -show_format -show_streams -print_format json ${file} 7570 files Format stats: mp3: 1 gif: 1 srt: 3 matroska,webm: 10 tty: 13. Press question mark to learn the rest of the keyboard shortcuts. The part that confused me was the statement that "ffmpeg reorders the packets so that the DTS of the packet being processed by avcodec_decode_video() will always be the same as the PTS of the frame it returns". To double the speed of the video, you can use: ffmpeg -i input. ffmpeg的PTS,DTS的问题 xmfish 发布于 2013/01/28 09:30. The resulting video plays perfectly, up until the end of the 4th video. Some options can be changed during the operation of the filter using a command. 4 -af />/asetrate=48000*1. Some of the uses of FFmpeg are: Video Compress Audio Compress Video Cut Video Rotate Video Crop Extract Picture from Video Extract Sound from Video Change Video Resolution Adding filters to videos Creating fast…. 023220 pts_time=0. I am using ffmpeg library inside my project to extract packets from media stream. -b:a 128k - Specifies the bitrate of the audio as 128k. 인코딩이 잘 작동하지만 메모리 누수를 완전히 없앨 수는 없습니다. Tutorial 04: Spawning Threads Code: tutorial04. It's the same for WMP, VLC (where it breaks seeking to a specific time: e. mkv format and remove a specified number of seconds. I dont know how to convert that to real time. ffmpeg -vsync drop -i source. mp4 -vf "setpts=2*PTS" output,mp4. Extract Audio from Video. I guess there is a possibility to get a better result by using -af aresample, but I have problems to. FFMPEG can use a suite of input commands. vc1: make P-frame deblock filter bit-exact. Select pixel format to be used by DirectShow. latm Then, looking at the created LATM file in a hex editor, and comparing the bytes with the AAC LATM/LOAS spec in the ISO standard (ISO14496-3-2009 - can be found on Google), after a bit of figuring out I worked out the problem. To double the speed of the video, you can use: ffmpeg -i input. See ffmpeg -filters to view which filters have timeline support. How I can split audio into complete segments (split by reported PTS)? Code: ffmpeg -i test. https://motiondesigntechnology. It's possible to use FFmpeg to remux content from the command line. I would imagine it having something to do with the time base. When seeking (audio), use the DTS/PTS for the first frame, because that's all you have. User can manipulate audio, video and subtitle through this class. FFmpeg is a great multimedia framework that helps you deal with your audio and video files. PA is configured (via null sinks) to take audio from output capture and the USB mic, and that bit works, but the recorded result is full of audible glitches, slowing down (speed and pitch) and crackles. FFmpeg, knihovny svobodný multiplatformní software využívají jej MPlayer, VLC media player, Avidemux, ffdshow knihovny: libavutil (matematické rutiny, pro zjednodušení programování) libavcodec (audio a video kodeky) libavformat (muxery a demuxery/splittery pro kontejnery) libavdevice (grabování a renderování přes V4L(2), VfW. - handles a greater range of edge cases. 1:10002 > 10000. FFmpeg is a comprehensive multimedia encoding and decoding library that consists of nu-merous audio, video, and container formats. Examples · Full ffmpeg example taking 2 audio inputs, 1st input to be compressed depending on the signal of 2nd input and later compressed signal to be merged with 2nd input: ffmpeg -i main. I am trying to understand the pts value in an audio encoded packet in ffmpeg. 5*PTS" output. This test uses FFmpeg for testing the system's audio/video encoding performance. 4, the following command creates output. 3 100 2011 activity apache audio avi bfmv bullet for my valentine burgers cam checkout clearcase clearsvn Client-side code codec configuration DivX divx-reenc download dvd ffmpeg google hands of blood hdmi Hooks il divo internet jawi language license lmstat lmutil lyrics media player mkv music nokia penang perm gen playlist Proper ps3 R5. *http://dranger. Default value is 0. 0 Running Video too fast and no sound Those file types may fall under 1 codec perhaps the ffmpeg? main audio output warning: PTS is out of range. So I calculated the DTS using current time information. 디코딩 된 오디오 패킷 인코딩의 일부로 avcodec_fill_audio_frame()을 사용하고 있습니다. Active 3 years ago. How to reproduce:. 2 [13 June 2015. pkt->pts, pkt->dts and pkt->duration are always set to correct values in AVStream. Thanks for your assistance. FFmpeg is developed. stab library - astats filter - trim and atrim filters - ffmpeg -t and -ss (output-only. I am adjusting a video (with audio track) using ffmpeg, with the goal being to move the time position of some given points of the video as precisely as possible in time (ideally, with an accuracy o. 0 that defines carrying of elementary streams (usually the output of an audio or video encoder) in packets within MPEG program streams and MPEG transport streams. 0) setpts= set presentation timestamp-r = frame rate Slowing down: Video: ffmpeg -i input. 125*PTS" -an output8x. 0 aq= 314KB vq= 8552KB sq= 0B f=0/0 /0. Change audio volume level. It is only meaningful if you are streaming with the RTSP protocol. 我将ffmpeg(版本0. FFMpeg – Transcode, copy flv to mp4 and more by RobinJack0r · Published May 23, 2014 · Updated April 13, 2019 (ffmpeg, ffplay and ffprobe) FFMpeg allows you to convert Video and Audio files to several different formats and codecs, as well as cutting, resizing and other functions. 125*PTS" output. 5*PTS" output. FFmpeg is a versatile video processing software supporting various video/audio formats for the standard ABR transcoding workflow. Some ffmpeg filters drop audio streams, and care must be taken to preserve the audio in the final output. 000 INFO: Generating VTS with the following video attributes: INFO: MPEG version: mpeg2 INFO: TV standard. Both are 640x480 and last 10 minutes. wav Options speed Set drive reading speed. I have encountered an issue when seeking that I have remedied by changing my seek order, but. mp4, which has the highest resolution among all the input video streams. How to convert a Video the right way h. Maybe this has previously been explained in some other threads but I wonder what the exact convention should be if we have to pass a PTS value to a codec and have to capture a PTS value from the codec. c Commit Line Data; 85f07f22: 1 /* 115329f1: 2 * FFmpeg main. mkv The filter works by changing the presentation timestamp (PTS) of each video frame. Take a look at this example for some ideas. We provide high quality professional and consulting services for businesses and consumers. It is not guaranteed to work in your environment: That line will generate 24fps (technically 23. mp4 and video2. mkv format and remove a specified number of seconds. Using ffmpeg, I'm recording a talk, its audio with a semi-distant microphone. But as you start decoding and playing, use the sample count as your timestamp and don't keep using the DTS/PTS. 880 STAT: VOBU 8816 at 1358MB, 1 PGCs INFO: Video pts = 0. ; After the semicolon (:) may be the stream specifier - supposing that you have only one video and one audio streams in your input files, you may simply use v for the video stream, and a for the audio stream. The reason is maybe, that the sampling rate of the output was transformed to 64. For the developers that use FFmpeg in their software. FFmpeg will only read ID3v1 tags if no other metadata is // available, so add a metadata entry to ensure some is always present. int64_t swr_next_pts (struct SwrContext *s, int64_t pts) Convert the next timestamp from input to output timestamps are in 1/(in_sample_rate * out_sample_rate) units. Speed up or Slow down the audio =====. 0 aq= 314KB vq= 8552KB sq= 0B f=0/0 /0. ffmpeg video-encoding video-editing video-subtitles. /ffprobe -show_format -show_streams -print_format json ${file} 7570 files Format stats: mp3: 1 gif: 1 srt: 3 matroska,webm: 10 tty: 13. It can be omitted most of the time in Python 2 but not in Python 3 where its default. Hi, These PTS and DTS used for sync between audio and video data while encoding and presentation. ffmpeg存在多个时间基准(time_base),对应不同的阶段(结构体),每个time_base具体的值不一样,ffmpeg提供函数在各个time_base中进行切换。 搞清楚各个time_base的来源,对于阅读ffmpeg的代码很重要。. Download FFmpeg. * Only set this if you are absolutely 100 % sure that the value you set * it to really is the pts of the first frame. void audioSpec_init(VideoState *is, Float64 sample_rate){// is audio input available? AudioComponentDescription outputcd = {0}; // 10. 069660 pts_time=0. The command ffmpeg -codecs will print every codec FFmpeg knows about. 100000:first_pts=0" helps to keep your audio lined up with the beginning of your video. Moreover I noticed that the difference between the two is big exactly at the places where audio and video are out of sync. See also this other article for the same with audio files. 2 allows attackers to cause a denial of service (application crash caused by a divide-by-zero error) with a user crafted audio file when converting to the MOV audio format. My question is: Are there any alternatives to the atempo filter to use with avconv, or how to speed up audio AND video using avconv?. I was able to extract all stream so for, except this one. Ask Question Asked 3 years ago. Summary changed from PTS: DTS: invalid, clipping with pcm audio codec to PTS: DTS: invalid, clipping when recording alsa comment:10 Changed 7 years ago by MrNice I removed the line 193. Active 3 years ago. However, it cannot handle a number of technical requirements that are specific to Twitch’s operation. flac -filter_complex "[1:a]asplit=2[sc][mix];[0:a][sc]sidechaincompress[compr];[compr][mix]amerge" silencedetect Detect silence in an. For example: To extract sound from a video and save it as MP3, you can use command line: $ ffmpeg -i video1. 6 Changing options at runtime with a command. I checked my timebase to be 1/44100 and some pts values : 70754080000, 70759090000, back to back packet pts values. 0 that defines carrying of elementary streams (usually the output of an audio or video encoder) in packets within MPEG program streams and MPEG transport streams. avi Input files are introduced with -i options, and are enumerated from 0, so. The video itself is more or less a slideshow with a high quality video in the beginning. [input-file] is the video file or the stream URL. What I need is to give ffmpeg the video and audio as separate inputs, instruct it to delay our audio and re-assemble the two streams into one resultant movie file. It calculate necessary cropping parameters and prints the recommended parameters through the logging system. These options are marked 'T' on the output of ffmpeg-h filter=. My code - bool AudioVideoRecorder::WriteVideo(const unsigned char *pData, size_t iDataSize, bool const bIFrame. 816 WARN: Current sector: 0. I used it like this: ffmpeg -i source. In this case, though, it's generally simple to use it for a simple remux. For video, it will select stream 0 from B. This device allows playing and grabbing from an Audio-CD. simplest with hstack (1) simplest with hstack (2) simplest with vstack (1) simplest with vstack (2) Using crop, and hstack (or vstack) Using `alphamerge'. % ffprobe XXX. For example, to compute the CRC of each decoded input audio frame converted to PCM unsigned 8-bit and of each decoded input video frame converted to MPEG-2 video, use the. Summary of the bug: When copying the streams of a mpeg-ts containing h. It includes libavcodec, the leading audio/video codec library used by several other projects. So, ffmpeg -y -i left. Because audio PTS by ffmpeg have 12 sec but real audio has 30 sec. 1: Audio: libmp3lame, 48000 Hz, stereo, 192 kb/s Stream mapping: Stream #0:0 -> #0:0 (copy) Stream #1:0 -> #0:1 (copy) Press ctrl-c to stop encoding frame= 144 fps= 0 q=-1. Hi, i use ffmpeg together with the Unreal Engine 4 (UE4) to record audio/video. 디코딩 된 오디오 패킷 인코딩의 일부로 avcodec_fill_audio_frame()을 사용하고 있습니다. 00001 /* 00002 * Audio Interleaving functions more details. mp4 -filter:v "setpts=0. I was able to extract all stream so for, except this one. mp4 This resulted in really bad audio quality. Audio and Video must have aligned time stamps, so the decoder can fetch the approbiate pieces. vob -f avi -vcodec mpeg4 -b 800k -g 300 -bf 2 -acodec libmp3lame -ab 128k snatch. This will be used next time for synchronizing the audio with the video. 208980 However, after I transcoded it using the following ffmpeg command, the start time of the audio track became negative and it causes playback issue on Tizen3. mp3 -i video. both on the audio stream of the source file and of the extracted file produces different hash. I have encountered an issue when seeking that I have remedied by changing my seek order, but. ffmpeg video-encoding video-editing video-subtitles. Hi, i use ffmpeg together with the Unreal Engine 4 (UE4) to record audio/video. This will make a Matroska container with a VP9 video stream and a Vorbis audio stream, essentially the same as the WebM we made earlier. In the details of #26, it's mentioned that a lot of this is just weird ffmpeg behavior and not directly ffmpeg-python, though some day we might be able to work around ffmpeg's weirdness a bit on the ffmpeg-python side. FFmpegは、単体ではGUIを持たないツールでUNIX コマンドのように振る舞う。 その為、対話式アプリケーションとして使用される場合、フロントエンドを用いる事も多い。 コマンドラインから実行するCUIとして配布されているのは、ユーザが必要とすればフロントエンドを利用でき. Looking For The Best Performance? If you want to see how many different systems compare performance-wise for this test profile, visit the performance showdown page. Hls Fragment Hls Fragment. Progi1984 - Commentaires (0) Logiciel Libre. >ffmpeg -err_detect ignore_err -ss 3800 -t 120 -i L:\hbpvr\tvclip\20170127. So I calculated the DTS using current time information. - 27 August 2011 - Update to upstream FFmpeg 0. FFmpeg Formats Documentation: 3. [y/N] y Output #0, h264, to 'output. mp3 audio file. It's possible to use FFmpeg to remux content from the command line. The closest I've come is using this: ----- ffmpeg. * ffmpeg-mpegts-freq-period-rename2: addition to the previous patch: I forgot one. Video may have delayed frames, which means the input frame and output frame may refer to differently ordered units. mp3 Convert Audio for FreeSWITCH (or Asterisk) Converts WAV to various MP3 formats. This is the primary reason why we got no pts returned (pts were set to 0) when using early version of LibAV. For the developers that use FFmpeg in their software. mp4 20 pixels down and 40 pixels over. com/ffmpeg. 04 or newer can just install ffmpeg from the repository. It can convert to and from any supported video/audio codec, as well as stream from live feeds, which is what our example is going to be in this presentation-f :this option is typically not needed for file conversion. 0+0,0 -c:v libx264 -pix_fmt yuv420p -qp 0 -preset ultrafast moetoVideo. avi Input files are introduced with -i options, and are enumerated from 0, so. FFmpeg-based console audio/video player (e. 046440 pts_time=0. Ask Question Asked 3 years ago. pts/ffmpeg-1. Interaction with lswr is done through SwrContext, which is allocated with swr_alloc() or swr_alloc_set_opts(). GitHub Gist: instantly share code, notes, and snippets. The output of. 0 that defines carrying of elementary streams (usually the output of an audio or video encoder) in packets within MPEG program streams and MPEG transport streams. Active 3 years ago. webm -filter_complex "[0:v][1:v]hstack=inputs=2[v];[a:0][1:a]amerge[a]" -map "[v]" -map "[a]" -ac 2 merged. Set audio device buffer size in milliseconds (which can directly impact latency, depending on the device). BOSE CAR AUDIO SPEAKERS - $65 OBO (Rosemount) < image 1 of 2 > condition: excellent make / manufacturer: BOSE. 2 Free Download - VideoHelp. See more: access form output based user input, audio translation english spanish clips, ffmpeg convert mp3 audio wav, shotcut audio video sync, how to fix audio video sync, ffmpeg change movie audio mp3, using ffmpeg php convert audio, output query access input text, ffmpeg play stream audio, ffmpeg mms stream audio, multiple audio program. The part that confused me was the statement that "ffmpeg reorders the packets so that the DTS of the packet being processed by avcodec_decode_video() will always be the same as the PTS of the frame it returns". mp4 -filter:v -r 30 "setpts=2. Generated on Fri Oct 26 02:39:50 2012 for FFmpeg by 1. blob: 55b5f865c79114917d1a62de16a5d7820bb269cd [] [] []. In any case, take a look at that example and see if you can. 4 -af asetrate=48000*1. mp3" -filter_complex "[0:a]atrim=0:316,asetpts=PTS-STARTPTS. Speed up or Slow down the audio. In the audio portion of the two lines above you will see a few filters. 4, the following command creates output. 6 Changing options at runtime with a command. Users of Ubuntu 15. FFmpeg FFmpeg for Android. Set audio device number for devices with the same name (starts at 0, defaults to 0). com by David Winterbottom #:2# # commandlinefu. int swr_set_compensation (struct SwrContext *s, int sample_delta, int compensation_distance) Activate resampling compensation. crindu Posts: 1 Joined: Sun Mar 18, 2018 5:17 pm. Now feel free to try it with your audio device. 023220 pkt_pos=56761 pkt_size=8192 sample_fmt=flt nb_samples=1024 channels=2 channel_layout=stereo [/FRAME] [FRAME] media_type=audio stream_index=0 key_frame=1 pkt_pts=1024 pkt_pts. Say for example, to convert mp4 file to avi file, run: $ ffmpeg -i video. Show off your latest ffmpeg findings or useful commands; solely ffmpeg glitches are encouraged ;3 EXAMPLE: Abuse Scale Filter; Colorspace Glitch ffmpeg -i input. You can cross check whether the video gets written, by commenting out these lines. com/2017/07/18/commandline-media-helper/#. Video may have delayed frames, which means the input frame and output frame may refer to differently ordered units. My co-worker checked audio PTS information of problematic based on avidemux and Audio PTS is just OK. Press question mark to learn the rest of the keyboard shortcuts. mkv To slow down your video, you have to use a multiplier greater than 1: ffmpeg -i input. I receive RTP with AMR-WB and H. Creating the history video is time-consuming, since it has to process all the frames in the entire video. It seems we should remove following code from avisynth_read_packet function. Convert audio. PA is configured (via null sinks) to take audio from output capture and the USB mic, and that bit works, but the recorded result is full of audible glitches, slowing down (speed and pitch) and crackles. Get a new ffmpeg. I am trying to mux H264 encoded data and G711 PCM data into mov multimedia container. How to record desktop with audio on ffmpeg. mkv is a Matroska container file and accepts video, audio and subtitle streams, so ffmpeg will try to select one of each type. 5*PTS" output. Example command. OK, I Understand. At its core is the FFmpeg program itself, designed for command-line-based processing of video and audio files, and widely used for format transcoding, basic editing (trimming and concatenation), video scaling, video post. 264 video encoding, FFmpeg uses external open source library x264. 976fps) output and have a keyframe every two seconds (-g 48 -x264opts no-scenecut). Filippo Valsorda, 23 Mar 2016 on Technical notes Technical notes: mixing speaker and slides recording with FFmpeg. 74 seconds Second Video 6. 參考了 http://albert-oma. The line below can be used as a starting point for FFmpeg. The name of the command is the name of the option and the argument is. mpg -map 0. How to convert a Video the right way h. exe -y -i "Video. I am creating AVPacket from encoded data and initially the PTS and DTS value of video/audio frames is equivalen. 2 allows attackers to cause a denial of service (application crash caused by a divide-by-zero error) with a user crafted audio file when converting to the MOV audio format. It is not guaranteed to work in your environment: That line will generate 24fps (technically 23. The objective was to create video that was approximately 3 Mbps at a “decent” resolution; this video would be manually edited and then converted to Web quality. 154811, bitrate: 1963 kb/s Program 1 Stream # 0:0[0x102]: Data: timed_id3 (ID3 / 0x20334449) Stream # 0:1[0x100]: Video: h264 (Main) ([27][0][0][0] / 0x001B), yuv420p (tv), 1024x576 [SAR 1:1 DAR 16. 'fix_teletext_pts' Overrides teletext packet PTS and DTS values with the timestamps calculated from the PCR of the first program which the teletext stream is part of and is not discarded. When seeking (audio), use the DTS/PTS for the first frame, because that's all you have. yuv out%03d. 2, require Yasm external dependency. 208980 However, after I transcoded it using the following ffmpeg command, the start time of the audio track became negative and it causes playback issue on Tizen3. wav -b:a 192k output. Extract individual frames from a video using ffmpeg ffmpeg -f rawvideo -framerate 25 -s 352x288 -pixel_format yuv420p -i akiyo_cif. Note that this filter is not FDA approved, nor are we medical. 디코딩 된 오디오 패킷 인코딩의 일부로 avcodec_fill_audio_frame()을 사용하고 있습니다. This fixes the first issue I raised. For audio, it will select stream 3 from B. mp4 -vf fps=25 out%d. After the semicolon (:) may be the stream specifier - supposing that you have only one video and one audio streams in your input files, you may simply use v for the video stream, and a for the. JL Audio Stealthbox® Custom-fit fiberglass enclosure with 10" W1v3-2 subwoofer Fits 2005-up Chevrolet C6 Corvette. avi has the number 1. My question is: Are there any alternatives to the atempo filter to use with avconv, or how to speed up audio AND video using avconv?. 10 on FC 16, the version available from rpmfusion. 139320 pts_time=0. mp4 -vf “setpts=(1/X )*PTS” output. ffmpeg itsoffset for audio not working.